A.Bad.Moms.Christmas.2017.720p.WEB-DL.AAC.LLG

  • Category Movies
  • Type HD
  • Language English
  • Total size 944.4 MB
  • Uploaded By Creampie
  • Downloads 472
  • Last checked 1 week ago
  • Date uploaded 2 weeks ago
  • Seeders 5
  • Leechers 10

A Bad Moms Christmas

Comedy

The titular under-appreciated and over-burdened friends cope with the stresses of the most wonderful time of year as their own mothers visit for the holidays.

Infohash : D29397E935C40DC19A8C0B421A02606F4B91AF6B

******************************Thumbnail:**********************



******************************Screenshots:********************

Screenshot 1


Screenshot 2


Screenshot 3


Screenshot 4


Screenshot 5

**************************************************************

Complete name : A.Bad.Moms.Christmas.2017.720p.WEB-DL.AAC.LLG.mp4
Format : MPEG-4
Format profile : Base Media
Codec ID : isom (isom/iso2/avc1/mp41)
File size : 940 MiB
Duration : 1 h 44 min
Overall bit rate : 1 261 kb/s
Writing application : Lavf57.56.101

Video
ID : 1
Format : AVC
Format/Info : Advanced Video Codec
Format profile : [email protected]
Format settings : CABAC / 4 Ref Frames
Format settings, CABAC : Yes
Format settings, RefFrames : 4 frames
Codec ID : avc1
Codec ID/Info : Advanced Video Coding
Duration : 1 h 44 min
Bit rate : 1 200 kb/s
Width : 1 280 pixels
Height : 536 pixels
Display aspect ratio : 2.40:1
Frame rate mode : Constant
Frame rate : 23.976 (23976/1000) FPS
Color space : YUV
Chroma subsampling : 4:2:0
Bit depth : 8 bits
Scan type : Progressive
Bits/(Pixel*Frame) : 0.073
Stream size : 888 MiB (94%)

Audio
ID : 2
Format : AAC
Format/Info : Advanced Audio Codec
Format profile : LC
Codec ID : mp4a-40-2
Duration : 1 h 44 min
Bit rate mode : Constant
Bit rate : 64.8 kb/s
Channel(s) : 2 channels
Channel positions : Front: L R
Sampling rate : 48.0 kHz
Frame rate : 46.875 FPS (1024 SPF)
Compression mode : Lossy
Stream size : 48.3 MiB (5%)
Language : English
Default : Yes
Alternate group : 1

Files:

A.Bad.Moms.Christmas.2017.720p.WEB-DL.AAC.LLG
  • Sample.mp4 (4.2 MB)
  • A.Bad.Moms.Christmas.2017.720p.WEB-DL.AAC.LLG.mp4 (940.2 MB)

There are currently no comments. Feel free to leave one :)

Code:

  • udp://tracker.openbittorrent.com:80/announce
  • udp://tracker.opentrackr.org:1337/announce